Laxmii Bomb hindi movie download 1080p HD

Laxmii Bomb hindi movie download 1080p HD

Laxmii Bomb (2020):

यह फ़िल्म एक भूत से जुड़ी है जो अन्याय के लिए प्रतिशोध की मांग करता है और घर में रहने वाले हर किसी को सताता है.
Akshay Kumar in a never seen before avatar as a man possessed by a transgender Laxmii Bomb ghost.

Directors: Lawrence Raghavendra

Stars: Akshay Kumar, Kiara Advani, Sharad Kelkar.

Format : Matroska
Format version : Version 4
File size : 1.40 GiB
Duration : 2 h 21 min
Overall bit rate : 1 425 kb/s

Video
ID : 1
Format : AVC
Format/Info : Advanced Video Codec
Format profile : [email protected]
Format settings : CABAC / 5 Ref Frames
Format settings, CABAC : Yes
Format settings, Reference frames : 5 frames
Format settings, GOP : M=4, N=48
Codec ID : V_MPEG4/ISO/AVC
Duration : 2 h 21 min
Bit rate : 1 300 kb/s
Width : 1 280 pixels
Height : 720 pixels
Display aspect ratio : 16:9
Frame rate mode : Constant
Frame rate : 24.000 FPS
Color space : YUV
Chroma subsampling : 4:2:0
Bit depth : 8 bits
Scan type : Progressive
Bits/(Pixel*Frame) : 0.059
Stream size : 1.28 GiB (91%)
Audio
ID : 2
Format : AAC LC
Format/Info : Advanced Audio Codec Low Complexity
Codec ID : A_AAC-2
Duration : 2 h 21 min
Bit rate : 126 kb/s
Channel(s) : 2 channels
Channel layout : L R
Sampling rate : 44.1 kHz
Frame rate : 43.066 FPS (1024 SPF)
Compression mode : Lossy
Stream size : 127 MiB (9%)
Language : Hindi
Default : Yes
Forced : No

 

Laxmii Bomb hindi movie download 1080p HD

You might be interested in

LEAVE YOUR COMMENT

Your email address will not be published. Required fields are marked *